<?xml version="1.0" standalone="no"?>
<!DOCTYPE svg PUBLIC "-//W3C//DTD SVG 1.1//EN" "http://www.w3.org/Graphics/SVG/1.1/DTD/svg11.dtd">
<svg xmlns="http://www.w3.org/2000/svg">
<metadata>Copyright (C) 2014 by original authors @ fontello.com</metadata>
<defs>
<font id="gumbo" horiz-adv-x="1000" >
<font-face font-family="gumbo" font-weight="400" font-stretch="normal" units-per-em="1000" ascent="850" descent="-150" />
<missing-glyph horiz-adv-x="1000" />
<glyph glyph-name="minus" unicode="&#xe800;" d="m0 413v-119c0-38 25-63 63-63l875 0c37 0 62 25 62 63v119c0 37-31 62-62 62h-875c-32 0-63-31-63-62z" horiz-adv-x="1000" />
<glyph glyph-name="eye" unicode="&#xe801;" d="m819 525c-175 175-463 175-644 0l-175-175 175-175c175-175 463-175 644 0l181 175-181 175z m-319-412c-131 0-237 106-237 237s106 238 237 238 238-107 238-238-107-237-238-237z m138 237c0-75-63-137-138-137-75 0-137 62-137 137 0 75 62 138 137 138 75 0 138-63 138-138z" horiz-adv-x="1000" />
<glyph glyph-name="home" unicode="&#xe802;" d="m875-88h-250l0 313h-250v-313h-250c-37 0-62 32-62 63v431c0 19 6 38 25 50l412 332 413-332c18-12 25-31 25-50v-431c0-31-32-63-63-63z" horiz-adv-x="1000" />
<glyph glyph-name="menu" unicode="&#xe803;" d="m875 538h-750c-37 0-62 25-62 62v63c0 31 25 62 62 62h750c31 0 63-25 63-62v-63c0-37-25-62-63-62z m63-500v62c0 31-25 63-63 63h-750c-31 0-62-25-62-63v-62c0-32 25-63 62-63h750c38 0 63 25 63 63z m0 287v50c0 31-25 63-63 63h-750c-31 0-62-25-62-63v-50c0-31 25-62 62-62h750c38 0 63 31 63 62z" horiz-adv-x="1000" />
<glyph glyph-name="phone" unicode="&#xe804;" d="m0 675l0 0c0-6 0-19 0-25 13-56 69-269 294-494 237-237 450-294 506-306 6 0 19 0 25 0h0c50 0 94 25 119 62 37 57 56 138 56 188 0 0-200 125-250 125h0c0 0-169-156-350 25s-25 350-25 350v0c0 44-125 250-125 250-50 0-131-19-187-56-38-25-63-75-63-119z" horiz-adv-x="1000" />
<glyph glyph-name="pencil" unicode="&#xe805;" d="m956 606l-118-118-200 200 125 118c25 25 68 25 93 0l107-106c18-31 18-69-7-94z m-887-487l-69-269 269 69 500 500-200 200-500-500z" horiz-adv-x="1000" />
<glyph glyph-name="trash" unicode="&#xe806;" d="m625 725v63h-250v-63h-187c-38 0-63-25-63-62v-63h63v-625c0-31 25-63 62-63h500c31 0 63 25 63 63v625h62v63c0 37-25 62-62 62h-188z" horiz-adv-x="1000" />
<glyph glyph-name="envelope" unicode="&#xe807;" d="m1000 463v-425c0-38-25-63-62-63h-875c-38 0-63 25-63 63v425l494-238 506 238z m-506-113l506 250v63c0 37-25 62-62 62h-875c-38 0-63-25-63-62v-63l494-250z" horiz-adv-x="1000" />
<glyph glyph-name="news" unicode="&#xe808;" d="m188 725v-187h-125v-438c0-69 56-125 125-125h625c68 0 125 56 125 125v625h-750z m625-625h-625c56 0 125 63 125 125v375h500v-500z m-63 188h-125v62h125v-62z m0 125h-125v62h125v-62z m0-250h-375v62h375v-62z m-187 375v-250h-188v250h188z" horiz-adv-x="1000" />
<glyph glyph-name="spreadsheet" unicode="&#xe809;" d="m313 475h-250v125h250v-125z m312 125h-250v-125h250v125z m313 0h-250v-125h250v125z m-625-187h-250v-125h250v125z m312 0h-250v-125h250v125z m313 0h-250v-125h250v125z m-625-188h-250v-125h250v125z m312 0h-250v-125h250v125z m313 0h-250v-125h250v125z" horiz-adv-x="1000" />
<glyph glyph-name="credit-card" unicode="&#xe80a;" d="m938-25h-875c-32 0-63 25-63 63v562c0 31 25 63 63 63h875c31 0 62-25 62-63v-562c0-38-25-63-62-63z m0 375h-875v-312h875v312z m0 125v125h-875v-125m812-187h-187v-188h187v188z m-250-63h-500v-62h500v62z" horiz-adv-x="1000" />
<glyph glyph-name="tag" unicode="&#xe80b;" d="m956 331l-500 500c-12 13-25 19-43 19h-357c-31 0-56-25-56-56v-356c0-19 6-32 19-44l500-507c25-25 62-25 81 0l356 357c25 25 25 62 0 87z m-831 350c-25 0-44 19-44 44s19 44 44 44 44-19 44-44-19-44-44-44z" horiz-adv-x="1000" />
<glyph glyph-name="logout" unicode="&#xe80c;" d="m250 100h250v-188h-312c-69 0-125 57-125 126v625c0 68 56 125 125 125h312v-188h-250v-500z m688 250l-313 375v-250h-250v-250h250v-250l313 375z" horiz-adv-x="1000" />
<glyph glyph-name="info" unicode="&#xe80d;" d="m500 788c-244 0-437-194-437-438s193-438 437-438 438 194 438 438-194 438-438 438z m-62-125h125v-125h-125v125z m187-625h-250v125h63v187h-63l63 125h125v-312h62v-125z" horiz-adv-x="1000" />
<glyph glyph-name="alert" unicode="&#xe80e;" d="m625 788h-250l-375-688 125-188h750l125 188-375 688z m-62-563h-125v375h125v-375z m0-125c0-37-25-62-63-62s-62 25-62 62 25 63 62 63 63-25 63-63z" horiz-adv-x="1000" />
<glyph glyph-name="phone-alt" unicode="&#xe80f;" d="m0 519c0 0 6 56 31 75 7 0 13 6 19 6 38 19 181 125 450 125 250 0 419-106 456-125 7 0 13-6 19-12 19-13 25-69 25-69v-106c0 0-200-19-219 0 0 0-75 168-281 168s-281-168-281-168c-25-19-219 0-219 0l0 106z m1000-481c6-32-19-126-50-126h-900c-31 0-56 94-50 126 13 43 50 106 113 162 62 56 118 119 156 194 37 81 106 144 231 144s194-63 231-138c38-75 100-137 157-194 62-62 100-125 112-168z m-281 156c0 119-100 219-219 219s-219-100-219-219 100-219 219-219 219 100 219 219z m-219 156c-87 0-156-69-156-156s69-156 156-156 156 68 156 156-68 156-156 156z" horiz-adv-x="1000" />
<glyph glyph-name="search" unicode="&#xe810;" d="m956 19l-206 206c56 88 81 200 50 319-37 150-156 262-300 294-300 68-556-188-487-488 31-150 150-269 293-300 119-31 232-6 319 50l206-206c25-25 63-25 88 0l44 43c18 19 18 57-7 82z m-550 206c-118 0-218 100-218 219s100 219 218 219 219-100 219-219-100-219-219-219z" horiz-adv-x="1000" />
<glyph glyph-name="marker" unicode="&#xe811;" d="m869 481c0-200-225-275-369-631-144 356-369 431-369 631s169 369 369 369 369-162 369-369z m-369 225c-81 0-144-62-144-143s63-144 144-144 144 62 144 144-63 143-144 143z" horiz-adv-x="1000" />
<glyph glyph-name="camera" unicode="&#xe812;" d="m938 663h-188l-125 125h-250l-125-125h-187c-38 0-63-25-63-63v-562c0-32 25-63 63-63h875c31 0 62 25 62 63v562c0 38-25 63-62 63z m-438-625c-156 0-281 125-281 281s125 281 281 281 281-125 281-281-125-281-281-281z m188 281c0-106-82-188-188-188s-187 82-187 188 81 187 187 187 188-81 188-187z" horiz-adv-x="1000" />
<glyph glyph-name="picture" unicode="&#xe813;" d="m1000 788h-1000v-557-256-63h1000v876z m-875-125h750v-419c-12-6-25-19-44-31-68-50-156-57-225-7-93 82-206 119-293 119-69 0-150-25-188-100v438z m688-188c0-69-57-125-125-125s-125 56-125 125 56 125 125 125 125-56 125-125z" horiz-adv-x="1000" />
<glyph glyph-name="gear" unicode="&#xe814;" d="m894 294c-44 0-81-25-100-69l0 0c-19-44-6-87 25-119l31-31-75-75-31 31c-31 32-75 38-119 25l0 0c-44-18-69-56-69-100v-44h-112v44c0 44-25 82-69 100l0 0c-44 19-87 7-119-25l-31-31-75 75 31 31c32 32 38 75 25 119l0 0c-18 44-56 69-100 69h-43v112h43c44 0 82 25 100 69l0 0c19 44 7 88-25 119l-25 25 75 75 32-31c31-32 75-38 118-25l0 0c38 25 63 62 63 106v44h106v-44c0-44 25-81 69-100l0 0c44-19 87-6 119 25l31 31 75-75-31-31c-32-31-38-75-25-119l0 0c18-44 56-69 100-69h50v-106h-44z m-394 162c-62 0-106-43-106-106s44-106 106-106 106 44 106 106-43 106-106 106z" horiz-adv-x="1000" />
<glyph glyph-name="chevron-up" unicode="&#xe815;" d="m38 369l437 219c13 6 31 6 44 0l437-219c25-13 32-38 19-63l-56-112c-13-25-38-31-63-25l-337 175c-13 6-25 6-38 0l-343-175c-25-13-57 0-63 25l-56 112c-13 25 0 50 19 63z" horiz-adv-x="1000" />
<glyph glyph-name="chevron-down" unicode="&#xe816;" d="m956 325l-437-219c-13-6-31-6-44 0l-437 219c-25 13-32 38-19 63l56 112c13 25 38 31 63 25l337-169c13-6 31-6 44 0l344 175c25 13 56 0 62-25l50-118c19-25 6-50-19-63z" horiz-adv-x="1000" />
<glyph glyph-name="chevron-left" unicode="&#xe817;" d="m506-106l-218 437c-7 13-7 32 0 44l218 438c13 25 38 31 63 18l119-56c25-12 31-37 25-62l-175-338c-7-12-7-31 0-44l175-344c12-25 0-56-25-62l-119-50c-19-19-50-6-63 19z" horiz-adv-x="1000" />
<glyph glyph-name="chevron-right" unicode="&#xe818;" d="m488 806l218-437c7-13 7-31 0-44l-218-438c-13-25-38-31-63-18l-112 56c-25 12-32 37-25 62l168 338c7 13 7 31 0 44l-168 344c-13 25 0 56 25 62l118 50c19 19 50 6 57-19z" horiz-adv-x="1000" />
<glyph glyph-name="facebook" unicode="&#xe819;" d="m0 82v536q0 66 47 113t114 48h535q67 0 114-48t47-113v-536q0-66-47-113t-114-48h-107v340h114l16 125h-130v80q0 30 16 46t53 16l74 1v115q-53 5-100 5-76 0-122-45t-46-126v-92h-125v-125h125v-340h-303q-67 0-114 48t-47 113z" horiz-adv-x="857.1" />
<glyph glyph-name="instagram" unicode="&#xe81a;" d="m0 31v638q0 45 32 77t78 33h637q45 0 78-33t32-77v-638q0-45-32-77t-78-33h-637q-45 0-78 33t-32 77z m95 23q0-14 10-24t25-10h596q14 0 24 10t10 24v362h-75q11-35 11-73 0-71-36-130t-97-94-134-35q-110 0-188 76t-78 183q0 38 11 73h-79v-362z m162 298q0-69 51-118t121-49q72 0 122 49t51 118-51 118-122 49q-71 0-121-49t-51-118z m329 201q0-17 11-28t27-11h98q16 0 27 11t11 28v92q0 15-11 27t-27 11h-98q-16 0-27-11t-11-27v-92z" horiz-adv-x="857.1" />
<glyph glyph-name="linkedin" unicode="&#xe81b;" d="m0 82v536q0 66 47 113t114 48h535q67 0 114-48t47-113v-536q0-66-47-113t-114-48h-535q-67 0-114 48t-47 113z m124 486q0-29 20-48t52-19h0q33 0 53 19t21 48q-1 29-21 48t-51 19-53-19-21-48z m8-507h129v387h-129v-387z m200 0h129v216q0 22 4 32 8 19 25 33t41 14q65 0 65-88v-207h129v222q0 86-41 130t-108 44q-75 0-116-65h1v56h-129q2-37 0-387z" horiz-adv-x="857.1" />
<glyph glyph-name="pinterest" unicode="&#xe81c;" d="m0 350q0 117 58 215t155 156 216 58 215-58 156-156 57-215-57-215-156-156-215-58q-62 0-122 18 33 52 43 92 5 19 31 118 11-22 40-38t64-16q67 0 120 38t83 105 29 151q0 64-34 119t-96 91-142 36q-59 0-110-17t-86-43-61-61-37-72-12-75q0-58 22-102t66-62q16-7 21 11 1 4 4 17t5 17q3 13-6 24-29 34-29 84 0 84 58 145t153 61q84 0 131-46t48-119q0-95-39-161t-98-67q-34 0-54 24t-13 59q4 19 15 52t16 57 7 43q0 27-15 46t-43 18q-35 0-59-31t-24-80q0-40 14-68l-55-233q-10-39-7-99-115 51-186 157t-71 236z" horiz-adv-x="857.1" />
<glyph glyph-name="youtube" unicode="&#xe81d;" d="m15 138q0 131 15 195 7 33 32 56t57 26q103 11 310 11t309-11q33-4 57-26t33-56q14-62 14-195 0-131-14-195-8-33-33-56t-57-25q-102-12-309-12t-310 12q-32 3-57 25t-32 56q-15 62-15 195z m62 139h59v-318h55v318h60v52h-174v-52z m71 573h60l39-147 38 147h57l-67-223v-151h-56v151q-8 42-34 119-21 57-37 104z m110-833q0-28 5-41 7-21 32-21 27 0 57 34v-30h50v276h-50v-211q-17-23-32-23-10 0-11 11-1 2-1 20v203h-50v-218z m85 550v97q0 45 15 65 21 29 59 29 38 0 59-29 16-20 16-65v-97q0-46-16-66-21-29-59-29-38 0-59 29-15 21-15 66z m50-10q0-39 24-39t24 39v117q0 39-24 39t-24-39v-117z m52-598h50v27q25-31 52-31 30 0 40 31 5 15 5 56v110q0 41-5 55-10 31-40 31-28 0-52-30v121h-50v-370z m50 54v168q12 12 25 12 22 0 22-37v-118q0-37-22-37-13 0-25 12z m38 522v220h51v-205q0-19 0-20 2-12 12-12 15 0 32 24v213h51v-279h-51v31q-30-35-58-35-25 0-33 21-4 13-4 42z m98-486q0-44 16-65 22-29 60-29 40 0 60 30 10 15 12 30 1 5 1 33v7h-51q0-29-1-34-4-20-22-20-26 0-26 38v49h100v57q0 44-15 65-22 28-59 28-38 0-60-28-15-21-15-65v-96z m49 81v25q0 38 25 38t25-38v-25h-50z" horiz-adv-x="857.1" />
<glyph glyph-name="tumblr" unicode="&#xe81e;" d="m0 82v536q0 66 47 113t114 48h535q67 0 114-48t47-113v-536q0-66-47-113t-114-48h-535q-67 0-114 48t-47 113z m231 326h70v-225q0-44 10-68 9-23 33-43 24-21 58-32 34-11 78-11 37 0 72 7 32 8 75 28v101q-49-31-97-31-29 0-50 12-16 10-21 25-6 17-6 72v165h152v101h-152v162h-92q-6-50-22-82t-44-55q-27-22-64-35v-91z" horiz-adv-x="857.1" />
<glyph glyph-name="twitter" unicode="&#xe81f;" d="m25 74q19-2 43-2 126 0 224 77-59 1-105 36t-64 89q19-3 34-3 24 0 48 6-63 13-104 62t-41 115v2q38-21 82-23-37 25-59 64t-22 86q0 49 25 91 67-83 164-133t208-55q-5 21-5 41 0 75 53 127t127 53q78 0 132-57 61 12 114 44-20-64-79-100 52 6 104 28-37-54-90-93 0-8 0-23 0-73-21-145t-64-139-103-117-144-82-181-30q-151 0-276 81z" horiz-adv-x="928.6" />
<glyph glyph-name="vimeo" unicode="&#xe820;" d="m0 82v536q0 66 47 113t114 48h535q67 0 114-48t47-113v-536q0-66-47-113t-114-48h-535q-67 0-114 48t-47 113z m71 361q9-5 15-15t12-11q11-2 30 5t32 6 24-17q6-10 10-22t8-26 7-23q10-26 30-104 20-82 32-110 23-56 57-70 24-7 48-1t42 18q73 43 139 132 59 77 97 163t46 127q9 47-12 73-29 36-104 25-10-1-23-7t-32-17-36-27-33-39-25-51q44 4 63-9t15-55q-3-29-29-80-24-43-40-55-24-18-48 8-13 13-21 36t-11 40-5 47-5 40q-13 72-19 92-7 20-20 38t-28 23q-32 8-71-14-30-18-76-60t-69-56v-4z" horiz-adv-x="857.1" />
<glyph glyph-name="eye-closed" unicode="&#xe821;" d="m281 269l-81-119c-6 6-12 13-19 25l-181 175 175 175c100 100 231 144 363 131l-50-75c-125-6-225-106-225-231 0-25 6-56 18-81z m719 81l-175-175c-125-125-306-162-469-106l-75-113-6 6-19 13-37 25 0 0 500 750 0 0 62-37-62-100c37-19 75-44 106-75l175-188z m-262 0c0 69-32 125-75 169l-57-81c19-19 32-50 32-88 0-75-63-137-138-137-12 0-31 0-44 6l-56-81c31-13 63-19 94-19 137-6 244 100 244 231z m-463-394l0 0-19 13 19-13z" horiz-adv-x="1000" />
<glyph glyph-name="user" unicode="&#xe822;" d="m875 31l-69-119h-612l-69 119c0 182 94 332 150 382l0 0c0 0 56 25 75 0 38-44 88-63 150-63s113 13 150 56c19 25 75 0 75 0l0 0c63-43 150-200 150-375z m-375 382c106 0 156 112 156 187v38c0 0-12 150-156 150s-162-150-162-150v-38c0-75 56-187 162-187z" horiz-adv-x="1000" />
<glyph glyph-name="cart" unicode="&#xe823;" d="m1000 725v-62l-62-63-50-531c25-13 37-38 37-63 0-44-37-75-75-75-31 0-56 19-69 50h-487c-13-31-38-50-75-50-44 0-81 38-81 82s37 81 81 81c31 0 56-19 69-44h525l-63 63-625 50-62 437 937 125z" horiz-adv-x="1000" />
<glyph glyph-name="download" unicode="&#xe824;" d="m688 475l93-94-281-281-281 281 94 94 125-125v438h125v-438l125 125z m-563-375v-188h750v188h-187l-63-62h-250l-62 62h-188z" horiz-adv-x="1000" />
<glyph glyph-name="upload" unicode="&#xe825;" d="m313 413l-94 93 281 282 281-282-93-93-125 125v-438h-125v438l-125-125z m-188-313v-188h750v188h-187l-63-62h-250l-62 62h-188z" horiz-adv-x="1000" />
<glyph glyph-name="arrow-down" unicode="&#xe826;" d="m688 350l93-94-281-281-281 281 94 94 125-125v500h125v-500l125 125z" horiz-adv-x="1000" />
<glyph glyph-name="arrow-left" unicode="&#xe827;" d="m500 163l-94-94-281 281 281 281 94-93-125-125h500v-125h-500l125-125z" horiz-adv-x="1000" />
<glyph glyph-name="arrow-right" unicode="&#xe828;" d="m500 538l94 93 281-281-281-281-94 94 125 125h-500v125h500l-125 125z" horiz-adv-x="1000" />
<glyph glyph-name="arrow-up" unicode="&#xe829;" d="m313 350l-94 94 281 281 281-281-93-94-125 125v-500h-125v500l-125-125z" horiz-adv-x="1000" />
<glyph glyph-name="comment" unicode="&#xe82a;" d="m938 531v-306c0-69-57-125-125-131v-125l-125 125h-494c-75 6-131 62-131 137v300c0 75 56 132 131 132h619c68 0 125-57 125-132z" horiz-adv-x="1000" />
<glyph glyph-name="copy" unicode="&#xe82b;" d="m875 600v-688h-500v126h375v562h125z m-562 188l-125-125h125v125z m375 0h-313v-188h-187v-500h500v688z" horiz-adv-x="1000" />
<glyph glyph-name="dashboard" unicode="&#xe82c;" d="m500 725c-275 0-500-175-500-450s225-300 500-300 500 25 500 300-225 450-500 450z m-31-62h62v-125h-62v125z m-281-438h-125v63h125v-63z m81 188l-88 87 44 44 88-88-44-43z m369-282c-19-50-69-75-125-62-50 19-75 69-63 125 0 6 6 12 6 19l-62 256 162-206c7 0 13 0 19-7 50-18 81-75 63-125z m50 325l87 88 44-44-88-87-43 43z m250-231h-125v63h125v-63z" horiz-adv-x="1000" />
<glyph glyph-name="document" unicode="&#xe82d;" d="m813 788v-876h-625v626h250v250h375z m-438-188v188l-187-188h187z" horiz-adv-x="1000" />
<glyph glyph-name="print" unicode="&#xe82e;" d="m813 538v187h-625v-187c-69 0-125-63-125-63v-375c0 0 56-62 125-62v-63h625v63c68 0 125 62 125 62v375c0 0-57 63-125 63z m-63-500h-500v187h500v-187z m0 312h-62-375-63v313h500v-313z" horiz-adv-x="1000" />
<glyph glyph-name="x" unicode="&#xe82f;" d="m950 694l-100 100c-25 25-62 25-87 0l-263-263-262 269c-25 25-63 25-88 0l-94-94c-25-25-25-62 0-87l263-269-263-262c-25-25-25-63 0-88l94-100c25-25 63-25 88 0l262 269 263-263c25-25 62-25 87 0l100 100c25 25 25 63 0 88l-269 256 263 263c25 25 25 62 6 81z" horiz-adv-x="1000" />
<glyph glyph-name="plus" unicode="&#xe830;" d="m563 850h-125c-38 0-63-25-63-62v-313h-312c-38 0-63-25-63-62v-125c0-32 25-57 56-63l319 0v-313c0-31 25-62 63-62h125c31 0 62 25 62 62v313h313c31 0 62 25 62 63v125c0 31-25 62-62 62h-313l0 313c0 37-25 62-62 62z" horiz-adv-x="1000" />
<glyph glyph-name="ok" unicode="&#xe831;" d="m938 600l-88 88c-25 25-69 25-100 0l-406-407-113 107c-25 25-68 31-93 0l-88-82c-25-25-25-68 0-93l244-251c25-25 69-25 94 0l550 538c25 31 25 75 0 100z" horiz-adv-x="1000" />
<glyph glyph-name="x-small" unicode="&#xe832;" d="m675 88l-175 175-175-175-87 87 175 175-175 175 87 88 175-175 175 175 88-88-175-175 175-175-88-87z" horiz-adv-x="1000" />
<glyph glyph-name="plus-small" unicode="&#xe833;" d="m813 288h-250v-250h-125v250h-250v125h250v250h125v-250h250v-125z" horiz-adv-x="1000" />
<glyph glyph-name="minus-small" unicode="&#xe834;" d="m813 288h-619v125h619v-125z" horiz-adv-x="1000" />
<glyph glyph-name="ok-small" unicode="&#xe835;" d="m500 119l-244 194 75 100 150-113 232 294 100-75-313-400z" horiz-adv-x="1000" />
<glyph glyph-name="flickr" unicode="&#xe837;" d="m0 82v536q0 66 47 113t114 48h535q67 0 114-48t47-113v-536q0-66-47-113t-114-48h-535q-67 0-114 48t-47 113z m153 268q0-49 35-84t83-34 84 34 35 84-35 84-84 34-83-34-35-84z m315 0q0-49 34-84t84-34 84 34 34 84-34 84-84 34-84-34-34-84z" horiz-adv-x="857.1" />
<glyph glyph-name="calendar-empty" unicode="&#xe838;" d="m0-79v715q0 29 21 50t50 21h72v54q0 36 26 63t63 26h36q37 0 63-26t26-63v-54h214v54q0 36 27 63t63 26h35q37 0 63-26t27-63v-54h71q29 0 50-21t22-50v-715q0-29-22-50t-50-21h-786q-29 0-50 21t-21 50z m71 0h786v572h-786v-572z m143 679q0-8 5-13t13-5h36q8 0 13 5t5 13v161q0 8-5 13t-13 5h-36q-8 0-13-5t-5-13v-161z m429 0q0-8 5-13t13-5h35q8 0 13 5t5 13v161q0 8-5 13t-13 5h-35q-8 0-13-5t-5-13v-161z" horiz-adv-x="928.6" />
</font>
</defs>
</svg>
